Dmitriytishanskiy.ru

Онлайн уроки
2 просмотров
Рейтинг статьи
1 звезда2 звезды3 звезды4 звезды5 звезд
Загрузка...

Нетология курсы торрент

[Нетология] Профессия Аналитик данных (2019)

Описание

[Нетология] Профессия Аналитик данных (2019)

Курс « Профессия Аналитик данных » вы можете скачать практически бесплатно.

Чему вы научитесь на курсе:

— Работать с сырыми данными
Информация для отчетов теперь у вас в руках.
От получения данных из разных источников с помощью SQL до создания рабочих моделей и анализа с помощью Python.

— Работать с заказчиками данных
Говорите с бизнесом на одном языке.
Научим собирать и обрабатывать запросы на аналитику, предоставлять метрики в понятном виде и определять точку приложения усилий.

— Работать с Big Data
Получайте конкурентное преимущество: лучшие компании работают с большими данными.
Научим использовать в работе актуальные инструменты анализа данных: Hadoop и NoSQL.

— Выдвигать и тестировать гипотезы
Берите в работу сложные задачи и будьте уверены в своих подходах к достижению цели.
Научим приоритизировать гипотезы и подбирать эффективные инструменты для их проверки.

— Анализировать данные
Понимание бизнеса позволяет расти быстрее и увеличивать свой капитал. Научим находить инсайты в данных и предлагать бизнесу оптимальные сценарии роста.

1. SQL и получение данных

составление SQL запросов к БД
создание новых таблиц с помощью джоинов
группировка и фильтрация данных из БД
импорт и экспорт данных в БД
изучение характеристик данных с помощью аналитических функций SQL
использование PostgreSQL, MongoDB
работа с разными форматами файлов

2. Python для анализа данных

работа в Jupyter-Notebook
работа с pandas в таблицах
работа с матрицами и векторами в Python
понимание основных математических понятий, лежащих в основе анализа данных
работа с библиотекой numpy
понимание основ описательной статистики
проведение основных статистических тестов (z-test, f-test, chi-2 test)
проектирование экспериментов
подключение к БД из Python

3. Эксплоративный анализ и предобработка данных

визуализация данных с помощью библиотек seaborn, plotly
описание основных проблемы данных
проверка данных на полноту, целостность, валидность, наличие шумов, ошибок и пропусков
очистка данных с помощью numpy и pandas
сокращение размерности данных алгоритмами PCA, LDA, NMF

4. Статистика для аналитиков

Вы научитесь оценивать, связаны ли признаки, а также делать обоснованные выводы о том, значима ли эта связь статистически. Узнаете о статистических гипотезах, способах их проверки и об основных статистических критериях, которые для этого разработаны. Рассмотрите случайные события, их свойства и операции над ними.

5. Аналитика больших данных

Часто аналитик данных нужен именно в тех компания, которые накопили свою big data, и аналитику нужно владеть не только стандартными инструментами вроде статистики и SQL, но и знать основные принципы работы с большими данными, иметь представление о компонентах экосистемы Hadoop и облачных платформах для реализации решений по big data. Обо всем этом мы поговорим в модуле про аналитику больших данных.

6. Работа в команде

Вы научитесь работать в команде. Узнаете, кто является заказчиком аналитики в компании и как работать с разными типами заказчиков. Вы получите базовые знания об иерархии метрик, которые позволят вам говорить на одном языке с коллегами, выдвигать рабочие гипотезы и строить понятную отчётность.

Дипломная работа

В рамках дипломного проекта вы примените полученные навыки для решения своих текущих профессиональных задач: это может быть дашборд с визуализацией ключевых бизнес-показателей, комплекс предложений по оптимизации стратегии компании, поиск и обоснование точек роста бизнеса и т. д. Вы получаете готовый кейс для уверенного роста и перехода на новую должность.

Читать еще:  Курсы интернет маркетинга с трудоустройством

[Нетология] Сборник курсов

Собрник 35 курсов Нетологии раздаваемый через torrent.
Размер: 55,4 гб.

Состав комплекта:

ПРОВОДИТЕ ВРЕМЯ НА КАРАНТИНЕ С ПОЛЬЗОЙ ДЛЯ СЕБЯ! Доступ к огромной базе инфопродуктов (более 200.000 материалов), доступ к закрытому Torrent-трекеру с ЭКСКЛЮЗИВНОЙ информацией, доступ к ресурсу с зарубежными материалами и многое другое всего за 490 рублей/навсегда! Осваивайте новые и трендовые профессии вместе с OPENSSOURCE! Акция продлится до 21 апреля!

Всего комментариев: 27

29 октября, 2014 в 15:40

Сильный комплект, у этих ребят есть хорошие вещи. Спасибо OS!

4 марта, 2015 в 15:53

Такое в открытом доступе :shock:…СильнО!

18 июля, 2015 в 14:04

Огромное спасибо за раздачу.

31 октября, 2015 в 23:32

Реально качается, спасибо за раздачу

22 ноября, 2015 в 17:16

Cпасибо, реально задобали сайты с регистрацией, а сдесь с лету всё запустилось. Респект и уважение.

5 марта, 2016 в 13:33

Я до последнего не верил что я смогу его бесплатно скачать, ребята! Вы просто золотые.

4 апреля, 2016 в 23:03

Огроменное спасибо! Все качается! Респект и уважуха!

8 августа, 2016 в 18:02

14 августа, 2016 в 20:41

Как скачать, друзья?

5 сентября, 2016 в 22:31

Шикарно однако! Опен- вы реально крутые!
Вот это сборник.

p.s. кто не может скачать- кликайте пояростнее на кнопку «скачать». Её ловить надо, она какая то интересная, как будто неактивная- но на самом деле рабочая.

6 сентября, 2016 в 10:01

Или я дурак, или лыжи не едут… Где кнопка «скачать» то?

13 сентября, 2016 в 22:35

Кнопка скачать не работает

28 сентября, 2016 в 21:11

Прелестно, вы лучшие.

20 ноября, 2016 в 18:45

У меня такой же вопрос без ответа — а как скачать?

22 ноября, 2016 в 21:28

26 января, 2017 в 01:33

Отключите блокировщики рекламы что-бы скачать.

13 марта, 2017 в 03:20

Выражаю огромную благодарность за столь полезные материалы!

5 апреля, 2017 в 15:18

Кнопка скачать не работает. Все блокировщики отключены.

5 апреля, 2017 в 15:21

Сочувствую. В любом случае проблема у вас.

5 апреля, 2017 в 18:55

Всё работает,надо наводить на конец слова,последние три буквы.

21 июня, 2017 в 13:17

Спасибо большое за подсказку. )))))

20 октября, 2017 в 16:19

ребят кнопка работает я тоже не сразу попал ,активней клацайте раз раздачу хотите
я уже качаю хотя тоже не попадал

5 декабря, 2017 в 00:28

28 марта, 2018 в 09:49

Спасибо за подборку. Для тех кто не в теме или для совсем уж новичков — подойдет, тк это не курсы, а общие обзорные уроки по темам. Типа промо для полновесных курсов

16 октября, 2018 в 18:52

Курсы устарели технологически. Сейчас все поменялось, и сервисы, и площадки и инструменты..

23 октября, 2019 в 14:57

Для тех, кто не может скачать: кликабельны буквы «ат»

26 ноября, 2019 в 13:14

Лучшие.Такой сборник бесплатно скачать. МОЛОДЦЫ

Нетология | Веб-аналитика, что нужно знать интернет-специалисту (2016) (PCRec)

Автор (режиссер): Нетология
Жанр: Интернет маркетинг, Веб-аналитика

Описание:
После прохождения которого вы будет знать не только основы веб-аналитики, но и ее дополнительный функционал. Как и любой другой курс от Нетологии, этот даст вам не просто теоретические знания, а практические навыки, которые вы сможете тут же применить. Средний заработок веб-аналитика составляет порядка 90 000 рублей, что позволит не просто окупить затраты на обучение, а многократно их приумножить в перспективе.

Читать еще:  Курсы разработка мобильных приложений под android

Продолжительность: 41:40:40
Качество видео: PCRec

Видео: AVC/H.264, 960×492,

490 Кбит/сек
Аудио: AAC, 2 ch,

235 Кбит/сек, VBR

Общее
Полное имя : /Нетология — Веб-аналитика_ что нужно знать интернет-специалисту (2016)/05/Яндекс Метрика.mp4
Формат : MPEG-4
Профиль формата : Base Media / Version 2
Идентификатор кодека : mp42
Размер файла : 869 Мбайт
Продолжительность : 2 ч. 58 м.
Режим общего битрейта : Переменный
Общий поток : 681 Кбит/сек
Дата кодирования : UTC 2016-09-02 17:37:20
Дата пометки : UTC 2016-09-02 17:37:20

Видео
Идентификатор : 1
Формат : AVC
Формат/Информация : Advanced Video Codec
Профиль формата : High@L3.2
Параметр CABAC формата : Да
Параметр ReFrames формата : 5 кадров
Идентификатор кодека : avc1
Идентификатор кодека/Информация : Advanced Video Coding
Продолжительность : 2 ч. 58 м.
Битрейт : 442 Кбит/сек
Ширина : 1280 пикселей
Высота : 720 пикселей
Соотношение сторон : 16:9
Режим частоты кадров : Постоянный
Частота кадров : 20,000 кадров/сек
Цветовое пространство : YUV
Субдискретизация насыщенности : 4:2:0
Битовая глубина : 8 бит
Тип развёртки : Прогрессивная
Бит/(Пиксели*Кадры) : 0.024
Размер потока : 564 Мбайт (65%)
Библиотека кодирования : x264 core 148 r10 3f5ed56
Настройки программы : cabac=1 / ref=5 / deblock=1:0:0 / analyse=0x3:0x113 / me=umh / subme=8 / psy=1 / psy_rd=1.00:0.00 / mixed_ref=1 / me_range=16 / chroma_me=1 / trellis=1 / 8x8dct=1 / cqm=0 / deadzone=21,11 / fast_pskip=1 / chroma_qp_offset=-2 / threads=22 / lookahead_threads=3 / sliced_threads=0 / nr=0 / decimate=1 / interlaced=0 / bluray_compat=0 / stitchable=1 / constrained_intra=0 / bframes=3 / b_pyramid=2 / b_adapt=2 / b_bias=0 / direct=3 / weightb=1 / open_gop=0 / weightp=2 / keyint=infinite / keyint_min=20 / scenecut=40 / intra_refresh=0 / rc_lookahead=50 / rc=crf / mbtree=1 / crf=20.0 / qcomp=0.60 / qpmin=5 / qpmax=69 / qpstep=4 / vbv_maxrate=2750 / vbv_bufsize=7500 / crf_max=0.0 / nal_hrd=none / filler=0 / ip_ratio=1.40 / aq=1:1.00
Дата кодирования : UTC 2016-09-02 17:37:20
Дата пометки : UTC 2016-09-02 17:37:20
Основные цвета : BT.709
Характеристики трансфера : BT.709
Коэффициенты матрицы : BT.709

Аудио
Идентификатор : 2
Формат : AAC
Формат/Информация : Advanced Audio Codec
Профиль формата : LC
Идентификатор кодека : 40
Продолжительность : 2 ч. 58 м.
Вид битрейта : Переменный
Битрейт : 235 Кбит/сек
Каналы : 2 канала
Расположение каналов : Front: L R
Частота : 48,0 КГц
Метод сжатия : С потерями
Размер потока : 300 Мбайт (35%)
Дата кодирования : UTC 2016-09-02 17:37:20
Дата пометки : UTC 2016-09-02 17:37:20

Общее
Полное имя : /Нетология — Веб-аналитика_ что нужно знать интернет-специалисту (2016)/02/Занятие 2. Введение в Google Analytics.mp4
Формат : MPEG-4
Профиль формата : Base Media / Version 2
Идентификатор кодека : mp42
Размер файла : 774 Мбайт
Продолжительность : 2 ч. 44 м.
Режим общего битрейта : Переменный
Общий поток : 657 Кбит/сек
Дата кодирования : UTC 2016-08-23 07:47:07
Дата пометки : UTC 2016-08-23 07:47:07

Видео
Идентификатор : 1
Формат : AVC
Формат/Информация : Advanced Video Codec
Профиль формата : High@L3.1
Параметр CABAC формата : Да
Параметр ReFrames формата : 4 кадра
Параметр GOP формата : M=4, N=60
Идентификатор кодека : avc1
Идентификатор кодека/Информация : Advanced Video Coding
Продолжительность : 2 ч. 44 м.
Битрейт : 418 Кбит/сек
Ширина : 960 пикселей
Высота : 540 пикселей
Соотношение сторон : 16:9
Режим частоты кадров : Постоянный
Частота кадров : 20,000 кадров/сек
Цветовое пространство : YUV
Субдискретизация насыщенности : 4:2:0
Битовая глубина : 8 бит
Тип развёртки : Прогрессивная
Бит/(Пиксели*Кадры) : 0.040
Размер потока : 493 Мбайт (64%)
Библиотека кодирования : x264 core 148 r10 3f5ed56
Настройки программы : cabac=1 / ref=3 / deblock=1:0:0 / analyse=0x3:0x113 / me=hex / subme=7 / psy=1 / psy_rd=1.00:0.00 / mixed_ref=1 / me_range=16 / chroma_me=1 / trellis=1 / 8x8dct=1 / cqm=0 / deadzone=21,11 / fast_pskip=1 / chroma_qp_offset=-2 / threads=17 / lookahead_threads=2 / sliced_threads=0 / nr=0 / decimate=1 / interlaced=0 / bluray_compat=0 / stitchable=1 / constrained_intra=0 / bframes=3 / b_pyramid=2 / b_adapt=1 / b_bias=0 / direct=1 / weightb=1 / open_gop=0 / weightp=2 / keyint=infinite / keyint_min=20 / scenecut=40 / intra_refresh=0 / rc_lookahead=40 / rc=crf / mbtree=1 / crf=20.0 / qcomp=0.60 / qpmin=5 / qpmax=69 / qpstep=4 / vbv_maxrate=1650 / vbv_bufsize=1800 / crf_max=0.0 / nal_hrd=none / filler=0 / ip_ratio=1.40 / aq=1:1.00
Дата кодирования : UTC 2016-08-23 07:47:07
Дата пометки : UTC 2016-08-23 07:47:07
Основные цвета : BT.601 NTSC
Характеристики трансфера : BT.470 System B, BT.470 System G
Коэффициенты матрицы : BT.601

Читать еще:  Курсы скрам мастера

Аудио
Идентификатор : 2
Формат : AAC
Формат/Информация : Advanced Audio Codec
Профиль формата : LC
Идентификатор кодека : 40
Продолжительность : 2 ч. 44 м.
Вид битрейта : Переменный
Битрейт : 235 Кбит/сек
Каналы : 2 канала
Расположение каналов : Front: L R
Частота : 48,0 КГц
Метод сжатия : С потерями
Размер потока : 277 Мбайт (36%)
Дата кодирования : UTC 2016-08-23 07:47:07
Дата пометки : UTC 2016-08-23 07:47:07

Общее
Полное имя : /Нетология — Веб-аналитика_ что нужно знать интернет-специалисту (2016)/12/gtm.mp4
Формат : MPEG-4
Профиль формата : Base Media / Version 2
Идентификатор кодека : mp42
Размер файла : 664 Мбайт
Продолжительность : 2 ч. 6 м.
Режим общего битрейта : Переменный
Общий поток : 731 Кбит/сек
Дата кодирования : UTC 2016-09-19 16:40:19
Дата пометки : UTC 2016-09-19 16:40:19

Видео
Идентификатор : 1
Формат : AVC
Формат/Информация : Advanced Video Codec
Профиль формата : High@L3.1
Параметр CABAC формата : Да
Параметр ReFrames формата : 4 кадра
Параметр GOP формата : M=4, N=60
Идентификатор кодека : avc1
Идентификатор кодека/Информация : Advanced Video Coding
Продолжительность : 2 ч. 6 м.
Битрейт : 492 Кбит/сек
Ширина : 960 пикселей
Высота : 540 пикселей
Соотношение сторон : 16:9
Режим частоты кадров : Постоянный
Частота кадров : 20,000 кадров/сек
Цветовое пространство : YUV
Субдискретизация насыщенности : 4:2:0
Битовая глубина : 8 бит
Тип развёртки : Прогрессивная
Бит/(Пиксели*Кадры) : 0.047
Размер потока : 447 Мбайт (67%)
Библиотека кодирования : x264 core 148 r10 3f5ed56
Настройки программы : cabac=1 / ref=3 / deblock=1:0:0 / analyse=0x3:0x113 / me=hex / subme=7 / psy=1 / psy_rd=1.00:0.00 / mixed_ref=1 / me_range=16 / chroma_me=1 / trellis=1 / 8x8dct=1 / cqm=0 / deadzone=21,11 / fast_pskip=1 / chroma_qp_offset=-2 / threads=17 / lookahead_threads=2 / sliced_threads=0 / nr=0 / decimate=1 / interlaced=0 / bluray_compat=0 / stitchable=1 / constrained_intra=0 / bframes=3 / b_pyramid=2 / b_adapt=1 / b_bias=0 / direct=1 / weightb=1 / open_gop=0 / weightp=2 / keyint=infinite / keyint_min=20 / scenecut=40 / intra_refresh=0 / rc_lookahead=40 / rc=crf / mbtree=1 / crf=20.0 / qcomp=0.60 / qpmin=5 / qpmax=69 / qpstep=4 / vbv_maxrate=1650 / vbv_bufsize=1800 / crf_max=0.0 / nal_hrd=none / filler=0 / ip_ratio=1.40 / aq=1:1.00
Дата кодирования : UTC 2016-09-19 16:40:19
Дата пометки : UTC 2016-09-19 16:40:19
Основные цвета : BT.601 NTSC
Характеристики трансфера : BT.470 System B, BT.470 System G
Коэффициенты матрицы : BT.601

Аудио
Идентификатор : 2
Формат : AAC
Формат/Информация : Advanced Audio Codec
Профиль формата : LC
Идентификатор кодека : 40
Продолжительность : 2 ч. 6 м.
Вид битрейта : Переменный
Битрейт : 235 Кбит/сек
Каналы : 2 канала
Расположение каналов : Front: L R
Частота : 48,0 КГц
Метод сжатия : С потерями
Размер потока : 214 Мбайт (32%)
Дата кодирования : UTC 2016-09-19 16:40:19
Дата пометки : UTC 2016-09-19 16:40:19

1. Введение в веб-аналитику

Изучение основных параметров и показателей, обзор систем аналитики. Как работает счетчик в Google Analytics, настройка базовых фильтров и дополнительной функциональности. Обзор интерфейса и отчетов Яндекс.Метрика, полезные функции Яндекс.Метрика — обзор и примеры применения.

2. Аналитика эффективности сайта

Выявление предпочтений пользователей, цели и конверсия при отслеживании событий. Настройка рекламных источников с помощью UTM-меток, интеграция с системами контекстной рекламы (Google AdWords, Яндекс.Директ), методика анализа источников трафика. Способы встраивания кода отслеживания транзакций на сайте для оценки ROI.

3. Отчеты и персонализация

Интерфейс отчетов Google Analytics, визуализация потока или карты перехода и сортировка данных в отчетах. Настройка Google Analytics под себя: отчёты, ярлыки, сводки, оповещения.

4. Дополнительные функции

Использование дополнений Google Docs Spreadsheets и Google Analytics API, настройка отслеживания элементов сайта с помощью Google Tag Manager. Принципы работы современных систем колл-трекинга.

Скриншоты:
[

Ссылка на основную публикацию
Adblock
detector